Buggy Video Playback?

Hello random people,

I’m having some weird playback glitches, and I was wondering if anybody else was experiencing these difficulties.

My first problem is with a movie that I created for my old Fuze (using Video4Fuze), before I upgraded to the Fuze+. I would sit and watch it until my Fuze+ would just restart at random. No error messages, or anything. I tried using checkdisk on the memory card that contains this file, but it didn’t find any errors. It played fine on my old Fuze.

My second problem was with an H.264/MP4 file I had created just for this program, using XMedia-Recode. I have noticed some corruption in the video, which does not show up when I play the file on my PC. Here is some technical info about the file:

General
Complete name                    : O:\Video\Trap.mp4
Format                           : MPEG-4
Format profile                   : Base Media
Codec ID                         : isom
File size                        : 201 MiB
Duration                         : 56mn 35s
Overall bit rate                 : 496 Kbps
Encoded date                     : UTC 2010-12-27 08:01:11
Tagged date                      : UTC 2010-12-27 08:01:11
Writing application              : Lavf52.85.0

Video
ID                               : 1
Format                           : AVC
Format/Info                      : Advanced Video Codec
Format profile                   : Baseline@L2.0
Format settings, CABAC           : No
Format settings, ReFrames        : 1 frame
Codec ID                         : avc1
Codec ID/Info                    : Advanced Video Coding
Duration                         : 56mn 35s
Bit rate mode                    : Variable
Bit rate                         : 393 Kbps
Nominal bit rate                 : 775 Kbps
Width                            : 320 pixels
Height                           : 240 pixels
Display aspect ratio             : 4:3
Frame rate mode                  : Constant
Frame rate                       : 23.976 fps
Color space                      : YUV
Chroma subsampling               : 4:2:0
Bit depth                        : 8 bits
Scan type                        : Progressive
Bits/(Pixel*Frame)               : 0.214
Stream size                      : 159 MiB (79%)
Writing library                  : x264 core 112
Encoding settings                : cabac=0 / ref=1 / deblock=1:2:5 / analyse=0x1:0x131 / me=umh / subme=10 / psy=1 / psy_rd=1.00:1.00 / mixed_ref=0 / me_range=24 / chroma_me=1 / trellis=2 / 8x8dct=0 / cqm=0 / deadzone=21,11 / fast_pskip=1 / chroma_qp_offset=-4 / threads=3 / sliced_threads=0 / nr=2 / decimate=1 / interlaced=0 / constrained_intra=0 / bframes=0 / weightp=0 / keyint=250 / keyint_min=15 / scenecut=40 / intra_refresh=0 / rc_lookahead=70 / rc=2pass / mbtree=1 / bitrate=775 / ratetol=1.0 / qcomp=0.60 / qpmin=10 / qpmax=51 / qpstep=4 / cplxblur=20.0 / qblur=0.5 / vbv_maxrate=775 / vbv_bufsize=64 / ip_ratio=1.40 / aq=1:1.10 / nal_hrd=none
Encoded date                     : UTC 2010-12-27 08:01:11
Tagged date                      : UTC 2010-12-27 08:01:11

Audio
ID                               : 2
Format                           : AAC
Format/Info                      : Advanced Audio Codec
Format profile                   : LC
Codec ID                         : 40
Duration                         : 56mn 35s
Bit rate mode                    : Variable
Bit rate                         : 96.0 Kbps
Channel(s)                       : 2 channels
Channel positions                : Front: L R
Sampling rate                    : 44.1 KHz
Compression mode                 : Lossy
Stream size                      : 38.8 MiB (19%)
Encoded date                     : UTC 2010-12-27 08:01:11
Tagged date                      : UTC 2010-12-27 08:01:11

Also, some of the AVI’s on my card appear twice, IDK why. I’m using the 1.32.00 Firmware, BTW.

Edit: I have just fixed the Muli-AVI problem by deleting all of the *.idx files off the card, and waited for forever for it to load the card. I still don’t know anything about my other problems, though.